Joseph Weisberg | Yuthapong Varanukrohchoke | Retimed_REPACK_eShop_NSW-SUXXORS
fgt ettv the good doctor Lethal weapon Sicario ant man and the wasp luciana souza this is us playboy evo 2160p venom The big bang theory 1080p 2018 great british bake off s09e07 inferno office 2019 a star is born LESBIAN ANAL SEX SLAVES game of thrones incredibles 2 Ethd flash better call saul s04e10 the man in the High Castle 9-1-1 S02E03 VOICE jurassic world ita lucifer ncis s16e03 ethd ddr star trek discovery american horror story etmovies High Castle s03e03 big bang theory español the resident HINDI wwe better call saul mayans the flash s05e01 doctor who 0 czinner Doctor who s11e01 2018 ITA etrg arrow español vikings dtone billions nfl bbc shameless 1080p YIFY ncis shameless s09e05 the gifted High Castle s03e04 Big Bang Theory the flash Mission Impossible Fallout The Walking dead Ant-Man and the Wasp star trek discovery español Lethal Weapon S03E03 HDChina The Gifted s02e03 DTOne 
Warning! Use a VPN When Downloading Torrents!
Your IP Address is 136.243.35.158. Location is Germany
Your Internet Provider is tracking your torrent activity! Hide your IP ADDRESS with a VPN!
We strongly recommend using NordVPN to anonymize your torrenting. 30 Day Money Back Guarantee!
Try it Now!
ETTV Recommended TV Shows
Chicago.PD.S06E03.HDTV.x264-KILLERS[ettv] torrent
American.Horror.Story.S08E05.HDTV.x264-LucidTV[ettv] torrent
Modern.Family.S10E03.HDTV.x264-KILLERS[ettv] torrent
SEAL.Team.S02E02.WEB.x264-TBS[ettv] torrent

ETTV Recommended Xvid
The.Witch.Files.2018.HDRip.XViD-ETRG torrent
Searching.2018.HC.HDRip.XviD.AC3-EVO[EtMovies] torrent
Brothers.Nest.2018.DVDRip.XViD-ETRG torrent
22.Chaser.2018.HDRip.XviD.AC3-EVO torrent

ETTV Recommended HD
Constantine.City.of.Demons.The.Movie.2018.1080p.BluRay.x264.DTS-HDMA.5.1-DTOne torrent
Death.Race-Beyond.Anarchy.2018.Multi.1080p.BluRay.x264.DTS-HDMA.5.1-DTOne torrent
Hangman.2017.Multi.BluRay.1080p.x264.DTS-HDMA.5.1-DTOne torrent
The.Extraordinary.Journey.of.the.Fakir.2018.Multi.BluRay.1080p.x264.DTSXLL.5.1-DTOne torrent

ETTV Recommended UHD
Hook.1991.mUHD.2160p.BluRay.x265.HDR.DDP.5.1-DTOne torrent
Uncle.Drew.2018.2160p.mUHD.BluRay.x265.HDR.DDP.5.1-DTOne torrent
Hotel.Transylvania.3.Summer.Vacation.2018.mUHD.2160p.BluRay.x265.HDR.DDP.5.1-DTOne torrent
Hotel.Artemis.2018.mUHD.2160p.BluRay.x265.HDR.DDP.5.1-DTOne torrent

ETTV Recommended Cam
The Predator 2018 NEW HDCAM.XViD.AC3 ETRG torrent
THE NUN 2018 NEW HDCAM-24HD torrent
Venom 2018 HD-TS V2 X264-1XBET torrent
A.Star.Is.Born.2018.HDCAM.XViD.AC3-ETRG torrent

ETTV Recommended Foreign
Vaseegara (2003) DVDRip x264 - DTOne torrent
Gangs of Wasseypur Part 1 Uncensored - 2012 BluRay Hindi 720p x264 AAC 5.1 ESub - mkvCinemas torrent
Gangs of Wasseypur Part 2 Uncensored - 2012 BluRay Hindi 720p x264 AAC 5.1 ESub - mkvCinemas torrent
Imaikkaa Nodigal (2018) HDRip x264 - DTOne torrent

Social


Download Torrent "The Good Doctor (2017) - S01E13 (1080p AMZN WEB-DL x265 HEVC 10bit AAC 5.1 ..."

IMDB Details
Description:

Shaun Murphy, a young surgeon with autism and Savant syndrome, is recruited into the surgical unit of a prestigious hospital.

Genre:

Drama

Download Torrent (Magnet)
Download Torrent (File)
Seeds: 1,186
Leechers: 682
Completed: 6,829 
Last Checked: 24-01-2018 16:51:39


Details
Title:The Good Doctor (2017) - S01E13 (1080p AMZN WEB-DL x265 HEVC 10bit AAC 5.1 ...
Description:



Encode Screenshots (Click for full quality)




Media Information
General

Format                                   : Matroska
Format version                           : Version 4 / Version 2
File size                                : 523 MiB
Duration                                 : 43 min 1 s
Overall bit rate                         : 1 698 kb/s
Encoded date                             : UTC 2018-01-24 11:21:38
Writing application                      : mkvmerge v15.0.0 ('Duel with the Devil') 64-bit
Writing library                          : libebml v1.3.5 + libmatroska v1.4.5
Writing frontend                         : StaxRip v1.7.0.0


Video

ID                                       : 1
Format                                   : HEVC
Format/Info                              : High Efficiency Video Coding
Format profile                           : Main [email protected]@Main
Codec ID                                 : V_MPEGH/ISO/HEVC
Duration                                 : 43 min 1 s
Bit rate                                 : 1 248 kb/s
Width                                    : 1 920 pixels
Height                                   : 1 080 pixels
Display aspect ratio                     : 16:9
Frame rate mode                          : Constant
Frame rate                               : 23.976 (24000/1001) FPS
Color space                              : YUV
Chroma subsampling                       : 4:2:0
Bit depth                                : 10 bits
Bits/(Pixel*Frame)                       : 0.025
Stream size                              : 384 MiB (73%)
Writing library                          : x265 2.6+31-3712d13c09bf:[Windows][GCC 7.2.0][64 bit] 10bit
Encoding settings                        : cpuid=1173503 / frame-threads=3 / numa-pools=12 / wpp / no-pmode / no-pme / no-psnr / ssim / log-level=2 / input-csp=1 / input-res=1920x1080 / interlace=0 / total-frames=61888 / level-idc=0 / high-tier=1 / uhd-bd=0 / ref=3 / no-allow-non-conformance / no-repeat-headers / annexb / no-aud / no-hrd / info / hash=0 / no-temporal-layers / open-gop / min-keyint=23 / keyint=250 / gop-lookahead=0 / bframes=8 / b-adapt=2 / b-pyramid / bframe-bias=0 / rc-lookahead=50 / lookahead-slices=6 / scenecut=40 / radl=0 / no-intra-refresh / ctu=64 / min-cu-size=8 / no-rect / no-amp / max-tu-size=32 / tu-inter-depth=1 / tu-intra-depth=1 / limit-tu=0 / rdoq-level=0 / dynamic-rd=0.00 / no-ssim-rd / signhide / no-tskip / nr-intra=0 / nr-inter=0 / no-constrained-intra / no-strong-intra-smoothing / max-merge=3 / limit-refs=3 / no-limit-modes / me=3 / subme=3 / merange=57 / temporal-mvp / weightp / no-weightb / no-analyze-src-pics / deblock=0:0 / sao / no-sao-non-deblock / rd=3 / no-early-skip / no-rskip / no-fast-intra / no-tskip-fast / no-cu-lossless / no-b-intra / no-splitrd-skip / rdpenalty=0 / psy-rd=1.50 / psy-rdoq=0.00 / no-rd-refine / no-lossless / cbqpoffs=0 / crqpoffs=0 / rc=crf / crf=21.0 / qcomp=0.60 / qpstep=4 / stats-write=0 / stats-read=0 / ipratio=1.40 / pbratio=1.30 / aq-mode=3 / aq-strength=0.80 / cutree / zone-count=0 / no-strict-cbr / qg-size=32 / no-rc-grain / qpmax=69 / qpmin=0 / no-const-vbv / sar=0 / overscan=0 / videoformat=5 / range=0 / colorprim=2 / transfer=2 / colormatrix=2 / chromaloc=0 / display-window=0 / max-cll=0,0 / min-luma=0 / max-luma=1023 / log2-max-poc-lsb=8 / vui-timing-info / vui-hrd-info / slices=1 / no-opt-qp-pps / no-opt-ref-list-length-pps / no-multi-pass-opt-rps / scenecut-bias=0.05 / no-opt-cu-delta-qp / no-aq-motion / no-hdr / no-hdr-opt / no-dhdr10-opt / analysis-reuse-level=5 / scale-factor=0 / refine-intra=0 / refine-inter=0 / refine-mv=0 / no-limit-sao / ctu-info=0 / no-lowpass-dct / refine-mv-type=0 / copy-pic=1
Default                                  : Yes
Forced                                   : No


Audio

ID                                       : 2
Format                                   : AAC
Format/Info                              : Advanced Audio Codec
Format profile                           : LC
Codec ID                                 : A_AAC
Duration                                 : 43 min 1 s
Bit rate                                 : 448 kb/s
Channel(s)                               : 6 channels
Channel positions                        : Front: L C R, Side: L R, LFE
Sampling rate                            : 48.0 kHz
Frame rate                               : 46.875 FPS (1024 spf)
Compression mode                         : Lossy
Stream size                              : 138 MiB (26%)
Language                                 : English
Default                                  : Yes
Forced                                   : Yes


Subtitle

ID                                       : 3
Format                                   : UTF-8
Codec ID                                 : S_TEXT/UTF8
Codec ID/Info                            : UTF-8 Plain Text
Duration                                 : 42 min 49 s
Bit rate                                 : 80 b/s
Count of elements                        : 918
Stream size                              : 25.2 KiB (0%)
Language                                 : English
Default                                  : No
Forced                                   : No



Source Information
Release :
Amazon WEB-DL





Whilst we are happy for our releases to be re-posted on a platform we aren't on, please do so in a 'as-is' format. We ask that you do not create a new torrent, include all descriptions you see above including the QxR logo, tags, notes and screenshots. If you'd like to become a permanent poster on a website we don't post to, feel free to get in contact with a QxR member.


Category:TV > HD/X264/H264
Lang:English  English
Total Size:523 MB
Info Hash:29c58675a0db6b00d3013ff8257c49fbc85de6b6
Added By:QxR
Date Added:24-01-2018 16:51:35

Files

File List: 
 File Size
The Good Doctor (2017) - S01E13 - Seven Reasons (1080p AMZN WEB-DL x265 Vyndros).mkv523 MB



Loading...
Comments

There are currently no comments. Be the first one to write something !

Disclaimer: None of the files shown here are actually hosted or transmitted by this server. The links are provided solely by this site's users. The site moderation is also a service provided by the site's users. The administrator of this site (ettv.tv) cannot be held responsible for what its users post, or any other actions of its users. You may not use this site to distribute or download any material when you do not have the legal rights to do so. It is your own responsibility to adhere to these terms.